Menu

Search


Vote for us

Top Partner

Links

Ass Party 2012
Vö-Datum: 01.10.2012 - Releasedatum: 01.10.2012
Ass.Party.2012.XXX.1080p.WEB-DL.MP4-b00bs

Genre: Anal, Deep Throat, Oral, Threesomes, Toys & Dildos
Sprache(n): Englisch
Untertitel:
Audiostream: Dolby Digital 2.0/2.1
Videocodec: MPEG-4 H.264
Videostream: Blu-ray
Laufzeit: 266 Minuten
Größe: 13200 MB
Notizen: Screen 1 Screen 2 Screen 3[/url



Vote Raidrush.wsVote Woz.to


Lade kostenlos Ass Party 2012 XXX 1080p WEB-DL MP4-b00bs mit Fullspeed!

Starring: Kristina Rose, Asa Akira, Marco Banderas, Krissy Lynn, Jon Jon, Christian, Remy LaCroix, Danny Wylde, Eva Karera, Casey Cumz, Melody Jordan Porn veteran Joey Silvera is planning a little get-together, and everyone’s cumming! “The Ass Party, a deluxe two-disc set, features a bevy of beautiful, butt-banging ladies in five of the director’s quirky, always unpredictable vignettes. These sexy girls might be all business up front, but they love to party in the rear! First, black-haired Belgian bombshell Eva Karera humps a buzzing vibrator to climax while having her taut sphincter expanded by muscular, bald stud Christian — who uses various toys, his thick cock and even a giant baseball bat to make her asshole gape wide open! The gorgeous slut eagerly tongues Christian’s asshole before receiving a creamy cum facial. Next is adorable, young Melody Jordan, an aspiring dancer hoping to get into Marco Banderas’ elite class.

Nfo-File:
Format                                   : MPEG-4
Format profile                           : Base Media
Codec ID                                 : isom
File size                                : 2.40 GiB
Duration                                 : 49mn 16s
Overall bit rate mode                    : Variable
Overall bit rate                         : 6 982 Kbps
Writing application                      : Lavf52.93.0

Video
ID                                       : 1
Format                                   : AVC
Format/Info                              : Advanced Video Codec
Format profile                           : High@L4.0
Format settings, CABAC                   : Yes
Format settings, ReFrames                : 4 frames
Codec ID                                 : avc1
Codec ID/Info                            : Advanced Video Coding
Duration                                 : 49mn 15s
Bit rate                                 : 6 800 Kbps
Width                                    : 1 920 pixels
Height                                   : 1 080 pixels
Display aspect ratio                     : 16:9
Frame rate mode                          : Constant
Frame rate                               : 29.970 fps
Color space                              : YUV
Chroma subsampling                       : 4:2:0
Bit depth                                : 8 bits
Scan type                                : Progressive
Bits/(Pixel*Frame)                       : 0.109
Stream size                              : 2.35 GiB (98%)
Writing library                          : x264 core 

Audio
ID                                       : 2
Format                                   : AAC
Format/Info                              : Advanced Audio Codec
Format profile                           : LC
Codec ID                                 : 40
Duration                                 : 49mn 16s
Bit rate mode                            : Variable
Bit rate                                 : 152 Kbps
Channel(s)                               : 2 channels
Channel positions                        : Front: L R
Sampling rate                            : 44.1 KHz
Compression mode                         : Lossy
Delay relative to video                  : 67ms
Stream size                              : 53.6 MiB (2%)

Format : MPEG-4 Format profile : Base Media Codec ID : isom File size : 2.40 GiB Duration : 49mn 16s Overall bit rate mode : Variable Overall bit rate : 6 982 Kbps Writing application : Lavf52.93.0 Video ID : 1 Format : AVC Format/Info : Advanced Video Codec Format profile : High@L4.0 Format settings, CABAC : Yes Format settings, ReFrames : 4 frames Codec ID : avc1 Codec ID/Info : Advanced Video Coding Duration : 49mn 15s Bit rate : 6 800 Kbps Width : 1 920 pixels Height : 1 080 pixels Display aspect ratio : 16:9 Frame rate mode : Constant Frame rate : 29.970 fps Color space : YUV Chroma subsampling : 4:2:0 Bit depth : 8 bits Scan type : Progressive Bits/(Pixel*Frame) : 0.109 Stream size : 2.35 GiB (98%) Writing library : x264 core Audio ID : 2 Format : AAC Format/Info : Advanced Audio Codec Format profile : LC Codec ID : 40 Duration : 49mn 16s Bit rate mode : Variable Bit rate : 152 Kbps Channel(s) : 2 channels Channel positions : Front: L R Sampling rate : 44.1 KHz Compression mode : Lossy Delay relative to video : 67ms Stream size : 53.6 MiB (2%)

 

Sitemap